<?xml version="1.0" standalone="no"?>
<!DOCTYPE svg PUBLIC "-//W3C//DTD SVG 1.1//EN" "http://www.w3.org/Graphics/SVG/1.1/DTD/svg11.dtd">
<svg xmlns="http://www.w3.org/2000/svg">
<metadata>Copyright (C) 2020 by original authors @ fontello.com</metadata>
<defs>
<font id="ext-icons" horiz-adv-x="1000" >
<font-face font-family="ext-icons" font-weight="400" font-stretch="normal" units-per-em="1000" ascent="850" descent="-150" />
<missing-glyph horiz-adv-x="1000" />
<glyph glyph-name="gridcol-iv" unicode="&#xe801;" d="M772 127h198v198h-198v-198z m-247 0h198v198h-198v-198z m-248 0h198v198h-198v-198z m-247 0h198v198h-198v-198z m742-247h99c55 0 99 44 99 99v99h-198v-198z m-247 0h198v198h-198v-198z m-248 0h198v198h-198v-198z m-247 99c0-55 44-99 99-99h99v198h-198v-99z m742 396h198v198h-198v-198z m-247 0h198v198h-198v-198z m-248 0h198v198h-198v-198z m-247 0h198v198h-198v-198z m841 445h-99v-198h198v99c0 55-44 99-99 99z m-346-198h198v198h-198v-198z m-248 0h198v198h-198v-198z m-247 99v-99h198v198h-99c-55 0-99-44-99-99z" horiz-adv-x="1000" />

<glyph glyph-name="heartfill-plus" unicode="&#xe802;" d="M655 139h28l65 65v28c0 16 13 30 30 30 8 0 15-3 20-8l34 34c0 0 0 0-1 1-14 14-13 37 1 50 43 42 67 96 67 154 0 57-24 112-67 152-42 42-97 65-155 65-58 0-112-23-154-64-13-13-37-13-50 0-86 86-222 86-308 0-41-41-64-96-64-154s23-112 64-154l333-333 50 50c14 14 36 14 50 0v0l35 35c-5 5-8 12-8 20 0 16 14 29 30 29z m-107-84l-50-50-333 332c-41 41-64 96-64 154s23 112 64 154c86 86 222 86 308 0 13-13 37-13 50 0 41 41 96 64 154 64 58 0 112-23 155-65 43-41 67-95 67-152 0-58-24-113-67-154-14-14-15-36-1-50 0 0 0 0 1-1 14-14 36-14 49-1 58 55 89 128 89 206 0 77-32 149-89 203-55 55-127 85-204 85-66 0-128-22-179-63-51 41-113 63-179 63-77 0-149-30-204-85-55-54-85-127-85-204 0-77 30-149 85-204l358-358c7-7 16-10 25-10 9 0 18 3 25 10l75 75c14 14 14 36 0 50v0c-13 15-36 15-50 1z m351 84h-75-18v18 75c0 9-4 16-10 22-5 5-12 8-20 8-16 0-30-13-30-30v-28-47-18h-16-47-28c-16 0-30-13-30-30 0-8 3-15 8-20 5-6 13-10 22-10h75 18v-18-75c0-16 13-30 30-30 16 0 30 13 30 30v75 19h18 75c16 0 30 13 30 30s-15 29-32 29z" horiz-adv-x="1000" />

<glyph glyph-name="heartfill" unicode="&#xe803;" d="M836 644l0 0-1 1c-38 38-89 60-143 60-53 0-104-21-143-60l-51-51-51 51c-38 38-89 60-143 60s-104-21-143-60c-80-80-80-205 0-285l336-336 336 336 1 1 1 1c40 38 62 89 62 142 1 53-21 103-61 140z m49 53c-54 54-124 81-194 81s-140-27-194-81c-54 54-124 81-194 81s-140-27-194-81c-106-108-106-280 2-387l387-387 387 387c113 107 113 280 0 387z m-50-336l0 0-337-337-336 337c-80 80-80 205 0 285 38 38 89 60 143 60s104-21 143-60l51-51 51 51c38 38 89 60 143 60 53 0 104-21 143-60l1-1 1-1c40-38 62-88 62-140-2-53-24-104-65-143l0 0z" horiz-adv-x="1000" />

<glyph glyph-name="shopbag-view-fill" unicode="&#xe804;" d="M840 110c-33 36-101 96-181 96-80 0-148-60-181-96-18-19-18-49 0-68 33-36 100-96 181-96 85 0 155 68 181 97 18 20 18 49 0 67z m-35-34c-22-24-81-81-146-81-65 0-124 56-146 80-1 1-1 3 0 4 17 19 79 80 146 80 65 0 124-57 146-81 1-1 1-2 0-2z m-146 56c-31 0-55-25-55-56s25-55 55-55 55 25 55 56c0 30-25 55-55 55z m68 156c0 0 0 1 0 0 0 1 0 1 0 0 1 1 2 1 3 1 15 0 28 12 28 28v201c0 46-37 83-83 83h-56v56c0 92-75 167-167 167-92 0-167-75-167-167v-56h-55c-46 0-83-37-83-83v-556c0-15 12-28 28-28h230c15 0 28 12 28 28 0 4-1 8-3 12-3 28-40 102-13 165 51 118 310 149 310 149z m-18 11c0 0 1-1 0 0 1-1 0 0 0 0z m-6 18c0-2 0-4 1-5-1 1-1 3-1 5z m1-8c0-1 1-2 1-3-1 1-1 2-1 3z m2-5c0-1 1-1 1-2 0 0-1 1-1 2z m12-12c0 0 0 0 0 0 0 0 0 0 0 0z m-5 3c0 0 0 0 0 0 0 0 0 0 0 0z m-94 251v-139c0-15-12-28-28-28s-28 12-28 28v139h56z m-278 111c0 61 50 111 111 111 61 0 111-50 111-111v-56h-222v56z m0-111v-139c0-15-12-28-28-28-15 0-28 12-28 28v139h56z m71-557c1 0 1 0 2-1-1 1-1 1-2 1z m8-3c0 0 0 0 0 0 0 0 0 0 0 0z m6-6c0 1 0 1 0 0 0 1 0 1 0 0z" horiz-adv-x="1000" />

<glyph glyph-name="navarrow-more" unicode="&#xe806;" d="M944 372h-283c-19 0-34-15-34-34 0-19 15-34 34-34h283c19 0 34 15 34 34 0 19-15 34-34 34z m0-204h-397c-19 0-34-15-34-34 0-19 15-34 34-34h397c19 0 34 15 34 34 0 19-15 34-34 34z m-397 340h397c19 0 34 15 34 34s-15 34-34 34h-397c-19 0-34-15-34-34s16-34 34-34z m-26-144l-159 193c-11 14-32 16-45 4-14-11-16-32-4-45l120-146h-379c-18 0-32-14-32-32 0-18 14-32 32-32h372l-114-147c-11-14-8-34 6-45 6-5 13-7 20-7 10 0 19 4 25 12l159 204c9 13 9 30-1 41z" horiz-adv-x="1000" />

<glyph glyph-name="shopbag-plus" unicode="&#xe807;" d="M286 602v56c0 92 75 167 167 167 92 0 167-75 167-167v-56h56c46 0 83-37 83-83v-250c0-15-12-28-28-28s-28 12-28 28v250c0 15-12 28-28 28h-55v-139c0-15-12-28-28-28s-28 12-28 28v138h-222v-139c0-15-12-28-28-28-15 0-28 12-28 28v139h-56c-15 0-28-12-28-28v-528h265c15 0 28-12 28-28 0-15-12-28-28-28h-292c-15 0-28 12-28 28v556c0 46 37 83 83 83h56z m56 0h222v56c0 61-50 111-111 111-61 0-111-50-111-111v-56z m389-622v18h18 75c16 0 30 13 30 30s-13 30-30 30h-75-18v18 74c0 16-13 30-30 30s-30-13-30-30v-75-18h-18-75c-16 0-30-13-30-30s13-30 30-30h75 18v-17-75c0-16 13-30 30-30s30 13 30 30v75z" horiz-adv-x="1000" />

<glyph glyph-name="sizeguide" unicode="&#xe808;" d="M647 820h-294c-16 0-29-13-29-29v-118h206v-59h-206v-88h147v-59h-147v-88h206v-59h-206v-88h147v-59h-147v-88h206v-59h-206v-118c0-16 13-29 29-29h294c16 0 29 13 29 29v883c0 16-13 29-29 29z" horiz-adv-x="1000" />

<glyph glyph-name="sizeguide-alt" unicode="&#xe809;" d="M953 587l-216 216c-12 12-31 12-43 0l-86-86 151-151-43-43-151 150-65-64 108-108-43-43-108 108-65-65 151-151-43-43-151 151-65-65 108-108-43-43-108 108-65-65 151-151-43-43-151 151-86-86c-12-12-12-31 0-43l216-216c12-12 31-12 43 0l647 647c12 12 12 31 0 43z" horiz-adv-x="1000" />

<glyph glyph-name="sizescale" unicode="&#xe80a;" d="M462-72l460 460 0-120h52v183c0 14-11 26-26 26 0 0 0 0 0 0h-183v-52l120 0-460-460 0 120h-52v-183c0-14 11-26 26-26 0 0 0 0 0 0h183v52l-120 0z m340 705l-183 183c-10 10-26 10-37 0l-73-73 128-128-37-36-127 128-55-55 91-91-37-37-91 91-55-55 128-128-37-37-127 129-55-55 91-91-36-37-91 91-55-55 127-127-37-37-127 128-73-73c-10-10-10-26 0-37l183-183c10-10 26-10 37 0l548 548c10 11 10 27 0 37z" horiz-adv-x="1000" />

<glyph glyph-name="sizescale-alt" unicode="&#xe80b;" d="M739-20v740l97-97 42 42-147 146c-11 12-30 12-42 0 0 0 0 0 0 0l-147-147 42-42 96 98v-740l-97 97-42-42 147-147c11-12 30-12 42 0 0 0 0 0 0 0l147 147-42 42-96-97z m-293 840h-294c-16 0-29-13-29-29v-117h205v-59h-205v-88h147v-59h-147v-88h205v-59h-205v-88h147v-59h-147v-88h205v-59h-205v-117c0-16 13-29 29-29h293c16 0 29 13 29 29v880c1 16-12 30-28 30z" horiz-adv-x="1000" />

<glyph glyph-name="external" unicode="&#xe80c;" d="M780 350c-26 0-47-21-47-47v-280c0-26-21-47-47-47h-513c-26 0-47 21-47 47v514c0 26 21 47 47 47h280c26 0 47 21 47 47s-21 47-47 47h-280c-77 0-140-63-140-140v-514c0-77 63-140 140-140h514c77 0 140 63 140 140v280c0 25-21 46-47 46z m184 438c-5 12-14 21-26 26-6 2-12 4-18 4h-280c-26 0-47-21-47-47s21-47 47-47h168l-435-434c-18-18-18-48 0-66 9-9 21-14 33-14s24 5 33 14l434 434v-168c0-26 21-47 47-47 26 0 47 21 47 47v280c0 7-1 13-3 18z" horiz-adv-x="1000" />

<glyph glyph-name="heartfill-alt" unicode="&#xe80d;" d="M879 691c-106 106-275 106-381 0-106 106-275 106-381 0s-106-275 0-381l381-381 381 381c111 106 111 276 0 381z m-68-150c-26-26-74-26-101 0-26 26-26 74 0 101 26 26 74 26 101 0s26-75 0-101z" horiz-adv-x="1000" />

<glyph glyph-name="eye" unicode="&#xe80e;" d="M434 377c21 1 39 16 39 37 0 1 0 2 0 3 1 2 1 4 2 6 1 2 2 4 4 6 1 1 3 3 4 4 2 1 4 3 7 4 2 1 4 1 6 2 1 0 2 0 4 0 10 0 21 4 28 11 7 6 12 17 12 26-1 20-17 37-39 37-28 0-55-11-75-29-20-19-31-44-31-70 0-20 18-38 39-37z m547-8c-39 59-90 108-150 148-59 39-128 67-199 82-40 8-80 13-120 13-8 0-16 0-24 0-31-1-63-3-94-8-72-12-142-38-204-74-62-37-116-85-158-141-5-6-9-13-14-20-7-11-7-27 0-37 39-59 90-108 150-148 59-39 128-67 199-82 79-17 159-18 238-5 72 12 142 37 204 74 62 37 116 85 158 141 5 6 9 13 14 20 3 5 5 10 5 15 1 7 0 15-5 22z m-612 61c2 11 5 21 9 32 5 9 10 18 17 27 8 9 16 17 26 24 9 6 19 11 29 16 11 4 22 7 33 8 2 0 5 0 7 1 7 0 14 0 20 0 2 0 5 0 7-1 11-2 23-5 33-9 10-4 20-10 29-16 9-7 18-15 26-24 6-9 12-18 17-27 4-10 7-20 9-31 1-6 1-11 1-17 0-5 0-11-1-16-2-11-5-21-9-32-5-9-10-18-17-27-8-9-16-17-26-24-9-6-19-11-29-16-11-4-22-7-33-8-12-1-23-1-35 0-11 2-23 5-33 9-10 4-20 10-29 16-9 7-18 15-26 24-6 9-12 18-17 27-4 10-7 21-9 31 0 11 0 22 1 33z m520-95c-24-28-51-54-81-76-33-24-70-44-108-60-42-16-86-27-131-33-45-5-91-5-137 0-45 6-89 17-131 33-39 16-75 36-108 60-30 22-57 48-81 76-4 5-8 10-11 15 4 5 8 10 11 15 24 28 51 54 81 76 33 24 70 44 108 60 4 2 9 3 13 5-4-7-7-13-10-20-8-19-12-39-14-59-3-40 8-81 30-115 21-33 53-61 90-77 11-5 22-9 33-12 12-3 24-5 36-6 22-2 44-1 65 3 81 15 150 82 163 160 2 11 3 23 3 34 0 1 0 2 0 3-1 30-9 61-24 89 4-1 8-3 12-4 38-16 75-36 108-59 30-22 57-48 81-76 4-5 8-10 11-15-1-7-5-12-9-17z" horiz-adv-x="1000" />

<glyph glyph-name="shopbag-view" unicode="&#xe80f;" d="M275 584v59c0 97 79 176 176 176 97 0 176-79 176-176v-59h59c49 0 88-39 88-88v-264c0-16-13-29-29-29s-29 13-29 29v264c0 16-13 29-29 29h-59v-147c0-16-13-29-29-29-16 0-29 13-29 29v148h-236v-147c0-16-13-29-29-29-16 0-29 13-29 29v147h-59c-16 0-29-13-29-29v-558h280c16 0 29-13 29-29 0-16-13-29-29-29h-310c-16 0-29 13-29 29v586c0 49 39 88 88 88h58z m59 0h235v59c0 65-53 117-117 117-65 0-117-53-117-117v-59z m529-517c-36 38-108 102-193 102-86 0-157-64-192-102-20-21-20-54 0-75 35-38 107-102 192-102 91 0 165 72 193 103 19 22 19 54 0 74z m-41-37c-23-25-85-85-153-85-67 0-129 59-153 83-1 1-1 1 0 1 18 20 83 84 153 84 69 2 130-58 153-83z m-152-59c-32 0-58 26-58 58 0 32 25 59 58 59 32 0 58-26 58-58 0-32-26-59-58-59z" horiz-adv-x="1000" />

<glyph glyph-name="list-right" unicode="&#xe812;" d="M18 37c0-53 43-96 96-96h530v144h-626v-48z m723-145h96c80 0 145 65 145 145v96h-241v-241z m-723 386h627v144h-627v-144z m723-49h241v242h-241v-242z m-723 434v-48h627v145h-530c-54 0-97-43-97-97z m820 145h-96v-241h241v96c-1 80-66 145-145 145z" horiz-adv-x="1000" />

<glyph glyph-name="magnifier" unicode="&#xe813;" d="M764 156c139 178 108 435-70 574-178 139-435 108-574-70-139-178-108-435 70-574 148-116 356-116 504 0l188-188c19-19 51-20 70 0 19 19 20 51 0 70 0 0 0 0 0 0l-188 188z m-321-57c-171 0-309 138-309 309 0 171 138 309 309 309 171 0 309-138 309-309 0 0 0 0 0 0-1-171-139-309-309-309z" horiz-adv-x="1000" />

<glyph glyph-name="list-left" unicode="&#xe814;" d="M355-60h530c53 0 96 43 96 96v48h-626v-144z m-337 97c0-80 65-145 145-145h96v241h-241v-96z m337 241h627v144h-627v-144z m-337-49h241v242h-241v-242z m868 531h-530v-145h627v48c-1 54-44 97-97 97z m-868-97v-96h241v241h-96c-80 0-145-65-145-145z" horiz-adv-x="1000" />

<glyph glyph-name="list-view" unicode="&#xe815;" d="M354-114h537c54 0 98 44 98 98v146h-635v-244z m-342 98c0-54 44-98 98-98h146v244h-244v-146z m342 244h635v244h-635v-244z m-342 0h244v244h-244v-244z m879 586h-537v-244h635v146c-1 54-44 98-98 98z m-879-98v-146h244v244h-147c-54 0-97-44-97-98z" horiz-adv-x="1000" />

<glyph glyph-name="gridcol-ii" unicode="&#xe816;" d="M548-130h288c80 0 144 64 144 144v288h-432v-432z m-528 144c0-80 64-144 144-144h288v432h-432v-288z m816 816h-288v-432h432v288c0 80-64 144-144 144z m-816-144v-288h432v432h-288c-80 0-144-64-144-144z" horiz-adv-x="1000" />

<glyph glyph-name="stacked" unicode="&#xe817;" d="M388 141c-27 0-48-22-48-48v-62c0-71 66-130 145-130h337c74-1 128 62 128 149v305c0 91-47 155-114 155h-79c-27 0-48-22-48-48 0-27 22-48 48-48l64 0c5-2 33 3 33-59v-316c0-2 0-42-32-42h-338c-28 0-48 20-48 34v62c0 27-22 48-48 48z m96 562h-289c-27 0-48-22-48-48v-289c0-27 22-48 48-48h289c27 0 48 22 48 48v289c0 27-21 48-48 48z m64 97h-385c-53 0-113-38-113-91v-385c0-54 60-102 113-102h385c53 0 80 49 80 102v385c0 53-27 91-80 91z m-16-434c0-27-22-48-48-48h-289c-27 0-48 22-48 48v289c0 27 22 48 48 48h289c27 0 48-22 48-48v-289z" horiz-adv-x="1000" />

<glyph glyph-name="list" unicode="&#xe818;" d="M255 754c-27 18-63 13-86-10l-14-14-15 15c-30 30-80 26-104-11-18-27-13-63 10-86l103-103c4-4 9-4 13 0l104 104c30 31 26 81-11 105z m0-303c-27 18-63 13-86-10l-14-14-15 15c-30 30-80 26-104-11-18-27-13-63 10-86l103-103c4-4 9-4 13 0l104 104c30 31 26 81-11 105z m0-303c-27 18-63 13-86-10l-14-14-15 15c-30 30-80 26-104-11-18-27-13-63 10-86l103-103c4-4 9-4 13 0l104 104c30 31 26 81-11 105z m142 465h537c23 0 41 19 41 41s-19 41-41 41h-537c-23 0-41-19-41-41s18-41 41-41z m537-221h-537c-23 0-41-19-41-41s19-41 41-41h537c23 0 41 19 41 41s-19 41-41 41z m0-303h-537c-23 0-41-19-41-41 0-23 19-41 41-41h537c23 0 41 19 41 41 0 23-19 41-41 41z" horiz-adv-x="1000" />

<glyph glyph-name="gridcol-iii" unicode="&#xe819;" d="M725-125h100c83 0 150 67 150 150v100h-250v-250z m-350 0h250v250h-250v-250z m-350 100c0-55 45-100 100-100h150v250h-250v-150z m700 250h250v250h-250v-250z m-350 0h250v250h-250v-250z m-350 0h250v250h-250v-250z m800 600h-100v-250h250v100c0 83-67 150-150 150z m-450-250h250v250h-250v-250z m-350 100v-100h250v250h-100c-83 0-150-67-150-150z" horiz-adv-x="1000" />

<glyph glyph-name="shopbag-plus-fill" unicode="&#xe81a;" d="M408 835c-88 0-160-72-160-160v-63h-112c-17 0-30-13-30-30v-537c0-50 40-90 90-90h311c67-96 200-120 296-52 96 67 120 200 52 296-34 49-87 81-145 89v294c0 17-13 30-30 30h-112v63c0 88-72 160-160 160z m-100-160c0 56 45 100 101 100 55 0 100-45 100-100v-63h-202l1 63z m526-597c0-84-69-153-153-153-84 0-153 69-153 153 0 84 68 153 153 153 85 0 153-69 153-153z m-184 474v-264c-116-17-197-125-180-241 2-11 4-21 7-31h-281c-17 0-30 13-30 30v506h81v-95c0-17 13-30 30-30s30 13 30 30v95h201v-95c0-17 13-30 30-30s30 13 30 30v95l82 0z m1-397v-47h-47c-17 0-30-13-30-30s13-30 30-30l0 0h47v-48c0-17 13-30 30-30s30 13 30 30v47h47c17 0 30 13 30 30s-13 30-30 30h-47v47c0 17-13 30-30 30s-30-12-30-29z" horiz-adv-x="1000" />

<glyph glyph-name="shopbag-option" unicode="&#xe81b;" d="M164 100h-6l1 6 53 486 1 5h5 408 5l1-5 18-164c12 2 24 2 36 2 10 0 19-1 29-1l-22 204c-2 17-16 29-32 29h-101-6v6 27c0 74-60 133-134 133-74 0-133-60-133-133v-27-6h-6-99c-16 0-31-13-32-29l-61-562c-1-10 2-18 8-25 6-7 15-11 24-11h260c-5 20-9 42-10 65h-207z m188 568v27c0 38 31 69 69 69s69-31 69-69v-27-6h-6-127-6v6z m557-683l-4 14c-4 16-9 34-16 51-2 5-4 10-7 15-3 6-6 13-7 17-3 16-5 33-7 50l0 1c-3 24-6 49-11 72-7 28-17 54-28 83-10 26-32 41-62 42-2 0-4 0-6 0-6 0-12 0-18-1l-9-1c-14-2-28-4-41-6l-7-1c-20-3-41-6-61-8-1 0-2 0-3 0-2 0-5 0-8 9l-43 108c-8 20-21 35-39 43-7 3-14 5-21 5-18 0-35-10-44-25-12-14-15-34-8-55l27-84c5-17 9-33 14-50-6 3-13 4-19 4-9 0-18-3-27-8-18-10-26-29-21-49 4-16 9-30 15-41 1-2 2-4 4-6l1-2c6-10 12-19 18-28 4-6 8-13 12-19l3-4c2-3 4-7 6-10 30-52 68-89 117-115 3-5 5-14 6-19 1-3 1-5 2-7l7-21 8-28c7-24 26-38 51-38 16 0 32 5 47 10 3 1 6 2 9 3l135 38c29 7 43 31 35 61z m-47-21l-135-38c-3-1-7-2-11-3-11-3-23-7-33-7-7 0-8 1-10 7l-10 35 0 0 0 0-3 7-2 4-2 5c0 1-1 2-1 4l0 0 0 1c-2 8-6 20-11 30-4 7-9 12-15 15-42 21-75 54-101 99-2 4-4 8-7 11l-3 4c-4 7-8 13-13 20-6 9-11 18-17 27l-1 2c-1 2-2 3-3 5l0 0c-4 8-8 17-11 29 0 0 0 0 0 1 0 0 0 0 1 1 2 1 4 2 5 2 1 0 2 0 3-1 4-2 7-5 9-8 5-6 11-13 17-22 1-1 1-2 2-3l0-1c2-3 4-7 7-11 6-8 14-12 23-12h0 0l0 0 9 1 2 0 1 2 5 6c5 7 6 16 3 26l-15 53c-7 24-13 47-20 72l-25 83c-2 7-2 13 1 16 0 0 5 5 11 5 8 0 15-9 18-17l43-110c9-22 26-35 49-35 3 0 5 0 8 1 20 3 41 6 61 8 16 2 32 4 48 7l8 1c4 0 8 1 12 1 1 0 3 0 4 0 12-1 20-5 24-15 11-27 20-52 26-76 5-22 8-45 10-68 2-17 4-35 7-52 2-11 7-21 12-31 2-4 4-7 5-10 6-14 10-31 14-46l4-14c4-8 3-9-3-11z" horiz-adv-x="1000" />
</font>
</defs>
</svg>
